General
Complete name : ChicasDePorno_Kagney.Linn.Karter_HD-720.mp4
Format : MPEG-4
File size : 797 MiB
Duration : 36mn 9s
Overall bit rate : 3 083 Kbps

Video
Format : AVC
Bit rate : 3 000 Kbps
Width : 1 280 pixels
Height : 720 pixels
Display aspect ratio : 16:9
Frame rate : 29.970 fps
Bit depth : 8 bits
Stream size : 776 MiB (97%)

Audio
Format : AAC
Bit rate : 75.3 Kbps
Channel(s) : 2 channels
Stream size : 19.5 MiB (2%)
Language : English

DF:
Code:
http://depositfiles.com/files/szuho5wjl
http://depositfiles.com/files/ftm54lire
LF:
Code:
http://lumfile.com/6hsdcb9qf90y/ChicasDePorno_Kagney.Linn.Karter_HD-720.part1.rar.html
http://lumfile.com/94utbairym78/ChicasDePorno_Kagney.Linn.Karter_HD-720.part2.rar.html